Fifty.Shades.of.Grey.2015.720p.BluRay.x264-x0r

seeders: 21
leechers: 3
updated:
Added by sub7 in Movies > HD

Download Fast Safe Anonymous
movies, software, shows...
Summary:

A literature student Anastasia Steele meets a handsome, yet tormented, billionaire named Christian Grey.

Files

Fifty.Shades.of.Grey.2015.720p.BluRay.x264-x0r
  • Fifty.Shades.of.Grey.2015.720p.BluRay.x264-x0r.fanart.jpg (156.1 KB)
  • Fifty.Shades.of.Grey.2015.720p.BluRay.x264-x0r.jpg (142.8 KB)
  • Fifty.Shades.of.Grey.2015.720p.BluRay.x264-x0r.mkv (2.7 GB)
  • Fifty.Shades.of.Grey.2015.720p.BluRay.x264-x0r.nfo (0.1 KB)

Description

Fifty.Shades.of.Grey.2015.720p.BluRay.x264-x0r

ImDb: http://www.imdb.com/title/tt2322441



Complete name : Fifty.Shades.of.Grey.2015.720p.BluRay.x264-x0r.mkv
Format : Matroska
Format version : Version 4 / Version 2
File size : 2.70 GiB
Duration : 2 h 8 min
Overall bit rate : 3 010 kb/s
Movie name : Fifty.Shades.of.Grey.2015.720p.BluRay.x264-x0r
Encoded date : UTC 2017-07-23 22:22:15
Writing application : mkvmerge v7.7.0 ('Six Voices') 64bit built on Mar 1 2015 01:50:05
Writing library : libebml v1.3.1 + libmatroska v1.4.2

Video
ID : 1
Format : AVC
Format/Info : Advanced Video Codec
Format profile : [email protected]
Format settings, CABAC : Yes
Format settings, ReFrames : 8 frames
Codec ID : V_MPEG4/ISO/AVC
Duration : 2 h 8 min
Bit rate : 2 560 kb/s
Width : 1 280 pixels
Height : 720 pixels
Display aspect ratio : 16:9
Frame rate mode : Variable
Frame rate : 23.976 FPS
Color space : YUV
Chroma subsampling : 4:2:0
Bit depth : 8 bits
Scan type : Progressive
Bits/(Pixel*Frame) : 0.116
Stream size : 2.30 GiB (85%)
Writing library : x264 core 130 r2273 b3065e6
Encoding settings : cabac=1 / ref=8 / deblock=1:-2:-2 / analyse=0x3:0x133 / me=umh / subme=9 / psy=1 / psy_rd=1.00:0.25 / mixed_ref=0 / me_range=32 / chroma_me=1 / trellis=2 / 8x8dct=1 / cqm=0 / deadzone=6,6 / fast_pskip=0 / chroma_qp_offset=-4 / threads=12 / lookahead_threads=1 / sliced_threads=0 / nr=0 / decimate=0 / interlaced=0 / bluray_compat=0 / constrained_intra=0 / bframes=4 / b_pyramid=2 / b_adapt=2 / b_bias=0 / direct=3 / weightb=1 / open_gop=0 / weightp=2 / keyint=240 / keyint_min=24 / scenecut=40 / intra_refresh=0 / rc_lookahead=60 / rc=2pass / mbtree=1 / bitrate=2560 / ratetol=1.0 / qcomp=0.00 / qpmin=0 / qpmax=69 / qpstep=4 / cplxblur=20.0 / qblur=0.5 / vbv_maxrate=20000 / vbv_bufsize=25000 / nal_hrd=none / ip_ratio=1.10 / aq=1:1.00
Language : English
Default : Yes
Forced : No
Color range : Limited
Color primaries : BT.709
Transfer characteristics : BT.709
Matrix coefficients : BT.709

Audio
ID : 2
Format : AC-3
Format/Info : Audio Coding 3
Format settings, Endianness : Big
Codec ID : A_AC3
Duration : 2 h 8 min
Bit rate mode : Constant
Bit rate : 448 kb/s
Channel(s) : 6 channels
Channel positions : Front: L C R, Side: L R, LFE
Sampling rate : 48.0 kHz
Frame rate : 31.250 FPS (1536 spf)
Bit depth : 16 bits
Compression mode : Lossy
Stream size : 412 MiB (15%)
Title : Surround
Language : English
Service kind : Complete Main
Default : Yes
Forced : No

Text
ID : 3
Format : UTF-8
Codec ID : S_TEXT/UTF8
Codec ID/Info : UTF-8 Plain Text
Duration : 1 h 59 min
Bit rate : 47 b/s
Count of elements : 1636
Stream size : 41.3 KiB (0%)
Default : Yes
Forced : No

Menu
00:00:00.000 : en:Chapter 1
00:10:25.933 : en:Chapter 2
00:14:27.174 : en:Chapter 3
00:20:30.579 : en:Chapter 4
00:24:04.334 : en:Chapter 5
00:29:48.595 : en:Chapter 6
00:35:06.996 : en:Chapter 7
00:40:17.974 : en:Chapter 8
00:46:32.398 : en:Chapter 9
00:50:21.419 : en:Chapter 10
00:57:04.247 : en:Chapter 11
01:02:19.023 : en:Chapter 12
01:06:49.836 : en:Chapter 13
01:14:27.126 : en:Chapter 14
01:22:15.316 : en:Chapter 15
01:31:10.942 : en:Chapter 16
01:38:13.868 : en:Chapter 17
01:46:20.239 : en:Chapter 18
01:53:18.824 : en:Chapter 19
02:01:41.498 : en:Chapter 20






Click To View Screenshot

Click To View Screenshot

Click To View Screenshot

Related Torrents

torrent name size uploader age seed leech
2 GB YIFY 3
years
952 173
874.1 MB YIFY 3
years
721 93
2.5 GB ignazio19 3
years
75 1
3.3 GB condors 3
years
27 3
3 GB condors 3
years
24 6


Download torrent
2.7 GB
seeders:21
leechers:3
Fifty.Shades.of.Grey.2015.720p.BluRay.x264-x0r


Trackers

tracker name
udp://tracker.coppersurfer.tk:6969/announce
udp://tracker.pirateparty.gr:6969/announce
udp://shadowshq.yi.org:6969/announce
udp://eddie4.nl:6969/announce
udp://tracker.leechers-paradise.org:6969/announce
udp://tracker.opentrackr.org:1337/announce
udp://p4p.arenabg.ch:1337/announce
udp://p4p.arenabg.com:1337/announce
udp://9.rarbg.me:2710/announce
udp://9.rarbg.to:2710/announce
udp://ipv4.tracker.harry.lu:80/announce
udp://tracker.grepler.com:6969/announce
udp://public.popcorn-tracker.org:6969/announce
udp://tracker.opentrackr.org:1337/announce
udp://tracker.zer0day.to:1337/announce
µTorrent compatible trackers list

Download torrent
2.7 GB
seeders:21
leechers:3
Fifty.Shades.of.Grey.2015.720p.BluRay.x264-x0r


Torrent hash: CEF20053B5CEDF8BE205431D4AE29F1C6091041A